Категории

Kodomo tsukai torrent

Innocent Curse aka Kodomo Tsukai - Official Trailer (In Cinemas 14 Sept 2017)

Скачать Невинное проклятие / Кошмарики / Kodomo tsukai (2017) HDTVRip 720p | L2 торрент

Популярное в категории - Зарубежные фильмы / Разное

14
янв
2018

Кошмарики / Невинное проклятие / Kodomo tsukai (Симидзу Такаси) [2017, ужасы, мистика, HDTVRip-AVC] DVO


Перевод:Любительский (двухголосый) [DeadSno и Den904]
Субтитры:Китайские (хардсаб)
Формат: HDTVRip-AVC, MKV, H.264, AC3
Страна:Япония
Режиссер:Симидзу Такаси
Жанр: ужасы, мистика
Продолжительность: 01:51:30
Год выпуска: 2017
В ролях:Такидзава Хидэаки, Кадоваки Муги, Ариока Дайки, Оноуэ Хироюки, Яманака Такаси

Описание:В городе пропадают дети, а взрослые, связанные с этими детьми, умирают при странных обстоятельствах. В интернете распространяется слух, что взрослый, встретивший пропавших без вести детей через три дня умрёт.  Репортёр местной газеты Эзаки Шунья (Ариока Дайки) начинает расследовать таинственные смерти. В то же время его девушка Харада Наоми (Кадоваки Муги) работает в детском садике. Мама мальчика не пришла за ним, поэтому девушка забирает ребёнка с собой. Вскоре после этого появляется таинственный мужчина (Такизава Хидеаки), способный "проникать" в сердца детей и управлять их душами, и тогда мальчик, находящийся под опекой Нахоми, внезапно пропадает.



Видео: 1024x544 (1.882), 23.976 fps, AVC MPEG-4 (H.264), [email protected] ~1649 kbps, 0.123 bit/pixel
Аудио: 48 kHz, AC3 Dolby Digital, 2/0 (L,R) ch, ~192 kbps

Доп. информация:Рекламы нет!
MI

General
Unique ID : 261006211119340995571054440090306015207 (0xC45BF7BF8CF1590A6F6C81485426EFE7)
Complete name : C:UsersЮрикDesktopНевинное проклятие_[tfile.ru].mkv
Format : Matroska
Format version : Version 2
File size : 1.47 GiB
Duration : 1 h 51 min
Overall bit rate : 1 879 kb/s
Writing application : Lavf55.12.100
Writing library : Lavf55.12.100

Video
ID : 2
Format : AVC
Format/Info : Advanced Video Codec
Format profile : [email protected]
Format settings, CABAC : Yes
Format settings, RefFrames : 2 frames
Format settings, GOP : M=1, N=12
Codec ID : V_MPEG4/ISO/AVC
Duration : 1 h 51 min
Bit rate : 1 649 kb/s
Width : 1 024 pixels
Height : 544 pixels
Display aspect ratio : 1.882
Frame rate mode : Constant
Frame rate : 23.976 (24000/1001) FPS
Color space : YUV
Chroma subsampling : 4:2:0
Bit depth : 8 bits
Scan type : Progressive
Bits/(Pixel*Frame) : 0.123
Stream size : 1.29 GiB (88%)
Default : Yes
Forced : No

Audio
ID : 1
Format : AC-3
Format/Info : Audio Coding 3
Format settings, Endianness : Big
Codec ID : A_AC3
Duration : 1 h 51 min
Bit rate mode : Constant
Bit rate : 192 kb/s
Channel(s) : 2 channels
Channel positions : Front: L R
Sampling rate : 48.0 kHz
Frame rate : 31.250 FPS (1536 SPF)
Bit depth : 16 bits
Compression mode : Lossy
Stream size : 153 MiB (10%)
Service kind : Complete Main
Default : Yes
Forced : No


15
мар
2016

Проклятие ведьминого дерева / Проклятие колдовского дерева / Curse of the Witching Tree (Джеймс Кроу) [2015, ужасы, мистика, WEB-DLRip] DVO

Перевод: Любительский (двухголосый) [den904 & DeadSno] Cубтитры: отсутствуют
Формат: WEB-DLRip, AVI, XviD, AC3
Страна: Великобритания
Режиссер: Джеймс Кроу
Жанр: ужасы, мистика
Продолжительность: 01:42:37
Год выпуска: 2015
В ролях: Сара Роуз Дентон, Люси Джейн Клэрвис, Лоуренс Веллер, Чарли Бонд, Вив Бонни, Кэролайн Болтон, Даниэль Бакс, Роб Бирн, Джон Кэмплинг, Фрэнки Джеймс Дэнтон
Описание: Семья переезжает на новую ферму, где, по слухам, жила ведьма, убившая собственного сына и еще 9 детей. В то время, как отец семейства лежит в коме, а жена и дети надеются на его возвращение к ним ...


03
янв
2011

Кошмарики. Жутко веселые и ужасно интересные истории (Валерий Роньшин) [2008, юмор, MP3, Алена Апина]

Формат: MP3, 160kbps
Год выпуска: 2008
Жанр: фантамистика, юмор
Автор: Валерий Роньшин
Издательство: СОЮЗ
Исполнитель: Алена Апина
Продолжительность: 01:59:28
Описание: Эта аудиокнига - настоящая находка для тех, кто любит попугаться и посмеяться. Она и смешная и "ужасная" одновременно. Другими словами - ужасно смешная. А ведь давно известно, что страх перестает быть страхом, когда над ним смеются. Чтобы в этом убедиться, достаточно прослушать любую из этих "очень страшных историй". Кого здесь только нет - и диваны-вампиры, и ангелы-телохранители и загадочные Гафченьки... Чего здесь только не ...


27
мая
2013

Проклятие / Ju-on (Такаши Шимицу) [2002, ужасы, детектив, DVDRip-AVC] DVO

Перевод: Профессиональный (двухголосый закадровый)
Субтитры: Английские(полные отключаемые, SRT), Английские(полные отключаемые, VOBSUB)
Формат: DVDRip, MKV, H.264, AC3
Страна: Япония
Режиссер: Такаши Шимицу
Жанр: ужасы, детектив
Продолжительность: 01:32:00
Год выпуска: 2002
В ролях: Мегуми Окина, Мисаки Ито, Миса Уехара, Юи Итикава, Кандзи Цуда, Кайоко Шибата, Юкако Кукури, Сюри Мацуда, Ёдзи Танака, Йошиюки Моришита
Описание: Много лет назад в этом доме произошла трагедия: мужчина убил свою жену, а судьба их шестилетнего сына Тошио осталась неизвестна, мальчик исчез. Умирая, несчастная женщин ...


19
мар
2016

Проклятие / The Curse (Дэвид Кит / David Keith) [1987, ужасы, фантастика, BDRip] DVO+AVO

Перевод: Профессиональный (двухголосый)НТВ+
Субтитры: отсутствуют
Формат: BDRip, AVI, XviD, AC3
Страна: США, Италия
Режиссер: Дэвид Кит / David Keith
Жанр: ужасы, фантастика
Продолжительность: 01:30:25
Год выпуска: 1987
В ролях: Уил Уитон, Клод Экинс, Мальколм Дэнар, Купер Хукаби, Джон Шнайдер, Эми Уитон, Стив Карлайл, Кэтлин Джордон Грегори
Описание: В окрестностях одной из ферм в штате Теннесси как-то ночью упал метеорит. На следующую ночь из него вытекла странная коричневая жижа, тут же слившаяся с водой в ручье и смешавшаяся с почвой. Наутро поля покрылись буйной порослью и налились соком ...


05
дек
2010

Проклятие пробуждается / Проклятие Банши / Damned by Dawn (Бретт Анстей) [2009, Ужасы., HDRip] VO

Перевод: Любительский (одноголосый)
Субтитры: русские
Формат: HDRip, AVI, XviD, AC3
Страна: Австралия
Режиссер: Бретт Анстей
Жанр: Ужасы.
Продолжительность: 01:24:29
Год выпуска: 2009
В ролях: Рене Вилнер, Бриджет Невал, Дон Клингберг, Дэнни Алдер, Тэрин Ева, Марк Тейлор, Питер Стрэтфорд, Нина Николс, Трент Шварц.
Описание: Внучка Клер со своим мужем приезжает к бабушке, которая находится одной ногой в могиле. Бабушка прислала загадочную посылку Клер , о которой просит никому ничего не рассказывать. Этой же ночью в доме начинают происходить странные события, повлекшие за собой чере ...


20
мая
2017

Американское проклятие / American Conjuring (Дэн Уолтон, Дэн Захари / Dan Walton, Dan Zachary ) [2016, ужасы, HDRip] DVO

Перевод: Любительский (двухголосый) [Синема УС], cубтитры: отсутствуют
Формат: HDRip, AVI, XviD, AC3
Страна: Канада
Режиссер: Дэн Уолтон, Дэн Захари / Dan Walton, Dan Zachary
Жанр: ужасы
Продолжительность: 01:24:26
Год выпуска: 2016
В ролях: Наташа Дэвидсон, Элиза Фариа, Дебора Финкел, Морган Линдсей Лэйн
Описание: Счастливая семья заезжает во вновь приобретённый старинный особняк, пустовавший долгие годы из-за ужасных легенд, окутывающих это место. Отец семейства Бен, его супруга Кэрол и дочери Зои и Алисса сразу после заселения сталкиваются с необъяснимыми событиями, преследующими их повсем ...


01
сен
2011

Проклятие тюрьмы Алькатрас / Curse of Alcatraz (Дэниэл Зирилли) [2007, ужасы, DVDRip]DVO

Перевод: Профессиональный (двухголосый)
Субтитры: отсутствуют
Формат: DVDRip, AVI, XviD, AC3
Страна: США
Режиссер: Дэниэл Зирилли
Жанр: ужасы
Продолжительность: 01:26:58
Год выпуска: 2007
В ролях: Фил Остин, Джесси Камачо, Том Гендер, Джереми Гилкрист, Аарон Харви, Джо Джонс, Кэндиз Лакота, Джейсон Меллинг, Марио Монтес, Сара Джейн Нэш...
Описание: Проклятие родившееся из пыток и изоляции воплощается в жизнь и терроризирует группу учёных, которые приехали в тюрьму «Алькатрас», чтобы изучить серию нераскрытых убийств.
Видео: 640x360 (1.78:1), 29.970 fps, XviD build 50 ~2047 kbps av ...


05
мар
2016

Проклятие колдовского дерева / Curse of the Witching Tree (Джеймс Кроу / James Crow) [2015, ужасы, WEBDLRip] DVO

Перевод: Любительский (двухголосый) [2D], cубтитры:русские, английские
Формат: WEBDLRip, AVI, XviD, AC3
Страна: Великобритания
Режиссер: Джеймс Кроу / James Crow
Жанр: ужасы
Продолжительность: 01:42:36
Год выпуска: 2015
В ролях: Чарли Бонд, Сара Роуз Дентон, Даниэль Бакс, Джон Кэмплинг
Описание: 500 лет назад, невинная женщина Изабель Редвуд (Даниэль Бакс) обвиняется в убийстве своего сына и повешена на дереве, как ведьма. Незадолго до смерти она проклинает дерево и всю окружающую среду вокруг него. На протяжении веков погибают девять детей в этой местности при загадочных обстоятельствах. Их ...


03
авг
2013

Проклятие могилы мумии / The Curse of the Mummy's Tomb (Майкл Каррерас) [1964, триллер, ужасы, DVDRip] DVO

Перевод: Профессиональный (многоголосый), cубтитры: отсутствуют
Формат: DVDRip, AVI, XviD, AC3
Страна: Великобритания
Режиссер: Майкл Каррерас
Жанр: триллер, ужасы
Продолжительность: 01:20:15
Год выпуска: 1964
В ролях: Теренс Морган, Рональд Ховард, Фред Кларк, Джинн Роланд, Джордж Пэстелл, Джек Гвиллим, Джон Пол, Дики Оуэн, Джилл Мэй Мередит, Майкл Риппер
Описание: Египет. 1900 год. Археологи Аннетт Дюбуа и Джон Грей находят гробницу фараона, убитого три тысячи лет назад своим братом — колдуном. По просьбе американского предпринимателя Александра Кинга они привозят мумифицированное тело фарао ...


05
мар
2016

[КПК] Проклятие ведьминого дерева / Curse of the Witching Tree (2015) [DVDRip, AVI, XviD, MP3] DVO

Перевод: Любительский (двухголосый) 2D, cубтитры: отсутствуют
Формат: DVDRip, AVI, XviD, MP3
Страна: Великобритания / Last British Dragon, Picture Perfect, Stax Entertainment
Режиссер: Джеймс Кроу
Жанр: ужасы
Продолжительность: 01:42:37
Год выпуска: 2015
Устройство: КПК
В ролях: Сара Роуз Дентон, Люси Джейн Клэрвис, Лоуренс Веллер, Чарли Бонд, Вив Бонни, Кэролайн Болтон, Даниэль Бакс, Роб Бирн, Джон Кэмплинг, Фрэнки Джеймс Дэнтон
Описание: Семья переезжает на новую ферму, где, по слухам, жила ведьма, убивашая собственного сына и еще 9х детей. В то время как отец семейства лежит в коме, а жена ...


30
апр
2011

Проклятие 3: Кровавая жертва / Curse III: Blood Sacrifice (Шон Бартон) [1991, ужасы, SATRip]DVO

Перевод: Профессиональный (двухголосый), cубтитры: отсутствуют
Формат: SATRip, AVI, XviD, MP3
Страна: Великобритания, ЮАР
Режиссер: Шон Бартон
Жанр: ужасы
Продолжительность: 01:26:38
Год выпуска: 1991
В ролях: Кристофер Ли, Дженили Харрисон, Генри Сил, Оливия Дайер, Гэвин Худ, Андре Джейкобс, Гоури Найду
Описание: Действие начинается в Восточной Африке в 1950 году. Белая женщина, жена фермера, спасает от жертвоприношения козу, чем вызывает недовольство местного колдуна. Он проклинает семью фермера. Сначала были зверски убиты ее сестра с мужем, а их, отрезанных от всего мира в диких африканских ...


16
июн
2015

Проклятие 3: Кровавое жертвоприношение / Curse III: Blood Sacrifice (Шон Бартон) [1991, ужасы, HDTVRip] DVO

Перевод: Профессиональный (двухголосый) (НТВ+), cубтитры: отсутствуют
Формат: HDTVRip, AVI, XviD, AC3
Страна: Великобритания, ЮАР
Режиссер: Шон Бартон
Жанр: ужасы
Продолжительность: 01:31:18
Год выпуска: 1991
В ролях: Кристофер Ли, Дженили Харрисон, Генри Сил, Оливия Дайер, Гэвин Худ, Андре Джейкобс, Гоури Найду
Описание: Действие начинается в Восточной Африке в 1950 году. Белая женщина, жена фермера, спасает от жертвоприношения козу, чем вызывает недовольство местного колдуна. Он проклинает семью фермера. Сначала были зверски убиты ее сестра с мужем, а их, отрезанных от всего мира в диких аф ...


19
авг
2011

Discovery. Моменты истории. Проклятие крысы / Moments in Time. Curse of the Rat (Крис Кокс, Ник Аптон) [2003, документальный, реконструкция, SATRip] DVO

Перевод: профессиональный двухголосый
Субтитры: отсутствуют
Формат: SATRip, AVI, XviD, MP3
Страна: США
Режиссер: Крис Кокс, Ник Аптон
Жанр: документальный, реконструкция
Продолжительность: 00:49:58
Год выпуска: 2003
В ролях: Джеймс Вудс (ведущий)
Описание: В XIV веке войско Золотой Орды дошло до Чёрного моря и осадило генуэзский порт Кафу. Чтобы овладеть неприступной крепостью, монголы катапультировали в город тела умерших от чумы воинов. В Кафе началась страшная эпидемия. Некоторым выжившим удалось бежать на торговых судах. Так чума проникла в Европу, где вскоре вымерла треть населения... ...


08
мая
2011

Пираты Карибского моря:Проклятие Черной жемчужины / Pirates of the Caribbean(Гор Вербински) [2003,BDRip 720p]DUB+DVO+AVO

Перевод: Профессиональный (полное дублирование)
Субтитры: русские (2 варианта), английские
Формат: BDRip, MKV, H.264, AC3
Страна: США
Режиссер: Гор Вербински
Жанр: фэнтези, боевик, приключения
Продолжительность: 02:23:14
Год выпуска: 2003
В ролях: Джонни Депп, Джеффри Раш, Орландо Блум, Кира Найтли, Джек Девенпорт, Джонатан Прайс, Ли Аренберг, Маккензи Крук, Дамиан О`Харе, Джиллз Нью
Описание: Жизнь харизматичного авантюриста, капитана Джека Воробья, полная увлекательных приключений, резко меняется, когда его заклятый враг, капитан Барбосса, похищает корабль Джека, Черную Жемчужину, а затем ...



Источник: https://MyKlad.org/1/1/35/koshmariki-nevinnoe-proklyatie-kodomo-tsukai-simidzu-takasi-2017-uzhasy-mistika-hdtvrip-avc-dvo.html

Невинное проклятие / Кошмарики / Kodomo tsukai (2017) HDTVRip 720p

Невинное проклятие / Кошмарики / Kodomo tsukai



Год выпуска: 2017 Жанр: ужасы, мистикаПроизводство: Япония [Shochiku Company] Режиссер: Симидзу ТакасиВ ролях: Такидзава Хидэаки, Кадоваки Муги, Ариока Дайки, Оноуэ Хироюки, Яманака Такаси
Сюжет фильма: В городе пропадают дети, а взрослые, связанные с этими детьми, умирают при странных обстоятельствах. В интернете распространяется слух, что взрослый, встретивший пропавших без вести детей через три дня умрёт. Репортёр местной газеты Эзаки Шунья начинает расследовать таинственные смерти. В то же время его девушка Харада Наоми работает в детском садике. Мама мальчика не пришла за ним, поэтому девушка забирает ребёнка с собой. Вскоре после этого появляется таинственный мужчина, способный "проникать" в сердца детей и управлять их душами, и тогда мальчик, находящийся под опекой Нахоми, внезапно пропадает.

  • Мировая премьера: 12 апреля 2017


Качество видео: HDTVRip-AVC

Продолжительность: 01:51:30 Формат: MKV Видео: MPEG-4 AVC, 1024x544, 23.976 fps, 1649 kbps Аудио: русский, любительский двухголосый закадровый, AC3 2.0, 48 kHz, 192 kbps Субтитры: китайские вшитые неотключаемые

Format : Matroska Format version : Version 2 File size : 1.47 GiB Duration : 1 h 51 min Overall bit rate : 1 879 kb/s Writing application : Lavf55.12.100 Writing library : Lavf55.12.100

Video ID : 2 Format : AVC Format/Info : Advanced Video Codec Format profile : [email protected] Format settings, CABAC : Yes Format settings, RefFrames : 2 frames Format settings, GOP : M=1, N=12 Codec ID : V_MPEG4/ISO/AVC Duration : 1 h 51 min Bit rate : 1 649 kb/s Width : 1 024 pixels Height : 544 pixels Display aspect ratio : 1.882 Frame rate mode : Constant Frame rate : 23.976 (24000/1001) FPS Color space : YUV Chroma subsampling : 4:2:0 Bit depth : 8 bits Scan type : Progressive Bits/(Pixel*Frame) : 0.123 Stream size : 1.29 GiB (88%) Default : Yes Forced : No

Audio ID : 1 Format : AC-3 Format/Info : Audio Coding 3 Format settings, Endianness : Big Codec ID : A_AC3 Duration : 1 h 51 min Bit rate mode : Constant Bit rate : 192 kb/s Channel(s) : 2 channels Channel positions : Front: L R Sampling rate : 48.0 kHz Frame rate : 31.250 FPS (1536 SPF) Bit depth : 16 bits Compression mode : Lossy Stream size : 153 MiB (10%) Service kind : Complete Main Default : Yes Forced : No
Перевод: Akira9Озвучивание: DeadSno и Den904
Источник: http://underverse.me/viewtopic.php?t=93259

Скачать торрент Невинное проклятие / Кошмарики / Kodomo tsukai (2017) HDTVRip 720p | L2

Детали торрентов

Скачать торрент Невинное проклятие / Кошмарики / Kodomo tsukai (2017) HDTVRip 720p | L2

Скачать Kodomo.tsukai.torrent

Скачать Kodomo.tsukai.torrent



Зарубежные фильмы
Добавить в закладки этот торрент(Только для зарегистрированных)



Информация о фильме
Название: Невинное проклятие / Кошмарики
Оригинальное название: Kodomo tsukai
Год выхода: 2017
Жанр: ужасы, мистика
Режиссер: Симидзу Такаси
В ролях: Такидзава Хидэаки, Кадоваки Муги, Ариока Дайки, Оноуэ Хироюки, Яманака Такаси

О фильме:
В городе пропадают дети, а взрослые, связанные с этими детьми, умирают при странных обстоятельствах. В интернете распространяется слух, что взрослый, встретивший пропавших без вести детей через три дня умрёт.
Репортёр местной газеты Эзаки Шунья (Ариока Дайки) начинает расследовать таинственные смерти. В то же время его девушка Харада Наоми (Кадоваки Муги) работает в детском садике. Мама мальчика не пришла за ним, поэтому девушка забирает ребёнка с собой. Вскоре после этого появляется таинственный мужчина (Такизава Хидеаки), способный "проникать" в сердца детей и управлять их душами, и тогда мальчик, находящийся под опекой Нахоми, внезапно пропадает.



Страна: Япония
Продолжительность: 01:51:30
Перевод: Любительский, двухголосый, закадровый (Студия "Колобок", перевод: Akira9, закадровый текст читали: DeadSno и Den904)

Файл
Кодек: V_MPEG4/ISO/AVC
Качество: HDTVRip 720p
Видео: 1280x692, 23.976 FPS, 2000 kb/s
Звук: AC-3, 48.0 kHz, 2ch, 192 kb/s
Субтитры: китайские (хардсаб)

Скриншоты

MediaInfo



Релиз от:




1.71 GB (1837108951 Bytes)
НазваниеРазмер
Происходит загрузка списка файлов...

1 file

14-Янв-2018 16:10 (1 месяц 29 дней назад)
Раздают: 19, Качают: 0

Написать комментарий



Как переводчики студия "Колобок" не вызывает особых нареканий(правда, девчёнке можно наведаться к логопеду для небольшой коррекции дикции :). Но вот что характерно, зачастую берутся переводить фильмы какого-нибудь третьесортного режиссеришко-неудачника, быть может, потому что другие отказываются браться за их перевод ввиду их безперспективности.
Спасибо за хорошие отзывы. А вот этих вот недовольных, которые вечно выскакивают как чёрт из табакерки и гадят в комментариях, я тоже не понимаю. Не нравится - проходи мимо. Релиз оформлялся для тех, кому нравится. И для тех, кто ценит труд людей, которые работали над фильмом.
mikenay, что тебя в них не устраивает?

Назад


Источник: http://mrutor.org/view.php?t=860720
Смотрите далее